Skip to main content

Shakedown Live at Camp Kee-Wamee on 2013-09-15


Topics Wormfest 2013


*** This is a 24 bit recording, not intended for CD Burning ***

Shakedown
2013-09-15
Wormtown Music Festival
Camp KeeWanee
Greenfield, MA
Vernville Stage

BSC1 (hypers) > FR-2LE [BA TMod] (24/48)
CF Card > Sound Forge Pro 10.0 (fades, Normalize) > CD Wav (tracking) > TLH > Flac (level 8)
DFC/DIN/8' high
Tags added in Foobar2000

Taped and Transferred by Brian V.

Set 1

01. How Sweet It Is (To Be Loved By You)
02. Mississippi Half-Step Uptown Toodeloo >
03. Bird Song
04. Help On The Way >
05. Slipknot >
06. Throwing Stones
07. Deal
08. Samson & Delilah
09. banter
10. Shakedown Street
11. Gloria

Set 2

01. Viola Lee Blues
02. Estimated Prophet >
03. Eyes of The World >
04. Foolish Heart >
05. Franklin's Tower


Collection ShakedownBand
Band/Artist Shakedown
Venue Camp Kee-Wamee
Location Greenfield, MA

Source BSC1 (hypers) > FR-2LE [BA TMod] (24/48)
Lineage CF Card > Sound Forge Pro 10.0 (fades, Normalize) > CD Wav (tracking) > TLH > Flac (level 8)
Taped by Brian V.
Transferred by Brian V.

Notes

Thanks to everyone that put Wormtown Music Festival together and for the tapers spot.
***Support Bands That Allow Taping/Trading***

shntool output
length expanded size cdr WAVE problems fmt ratio filename
6:51.653 118556204 B cxx -- ---xx flac 0.6459 shakedown2013-09-15s1t01.flac
9:35.173 165649964 B cxx -- ---xx flac 0.6651 shakedown2013-09-15s1t02.flac
10:25.360 180103724 B cxx -- ---xx flac 0.6473 shakedown2013-09-15s1t03.flac
4:34.933 79180844 B cxx -- ---xx flac 0.6809 shakedown2013-09-15s1t04.flac
5:06.533 88281644 B cxx -- ---xx flac 0.6782 shakedown2013-09-15s1t05.flac
12:12.933 211084844 B cxx -- ---xx flac 0.6658 shakedown2013-09-15s1t06.flac
6:44.173 116401964 B cxx -- ---xx flac 0.6692 shakedown2013-09-15s1t07.flac
8:08.613 140720684 B cxx -- ---xx flac 0.6860 shakedown2013-09-15s1t08.flac
1:22.547 23773484 B cxx -- ---xx flac 0.5687 shakedown2013-09-15s1t09.flac
11:40.000 201600044 B cxx -- ---xx flac 0.6877 shakedown2013-09-15s1t10.flac
7:37.227 131681324 B cxx -- ---xx flac 0.6621 shakedown2013-09-15s1t11.flac
8:23.747 145079084 B cxx -- ---xx flac 0.6664 shakedown2013-09-15s2t01.flac
8:47.333 151872044 B cxx -- ---xx flac 0.6675 shakedown2013-09-15s2t02.flac
19:18.000 333504044 B cxx -- ---xx flac 0.6694 shakedown2013-09-15s2t03.flac
7:40.493 132622124 B cxx -- ---xx flac 0.6808 shakedown2013-09-15s2t04.flac
8:11.744 141622316 B cxx -- ---xx flac 0.6670 shakedown2013-09-15s2t05.flac
136:40.464 2361734336 B 0.6679 (16 files)

Reviews

There are no reviews yet. Be the first one to write a review.
DOWNLOAD OPTIONS
In Collection
Shakedown
In Collection
Live Music Archive
Uploaded by
Brian V.
on 12/5/2013
Views
17
PEOPLE ALSO FOUND
Shakedown
by Shakedown
41
0
0
Source: DPA 4011 > V3 Digital + SBD > DR680 (24/48)
Shakedown
66
0
0
Source: Oktava mk 012 > R4 (24/48)
Shakedown
by Shakedown
57
0
0
Source: BSC1 (hypers) > FR-2LE [BA TMod] (24/48)
Shakedown
by Shakedown
43
0
0
Source: DPA 4011 > V3 Digital + SBD > DR680 (24/48)
Shakedown
by Shakedown
41
0
0
Source: DPA 4011 > V3 Digital + SBD > R44 (24/48)
Shakedown
by Shakedown
43
0
0
Source: DPA 4011 > V3 Digital + SBD > R44 (24/48)
Shakedown
by Shakedown
17
0
0
Source: BSC1 (hypers) > FR-2LE [BA TMod] (24/48)
Shakedown
65
0
0
Source: DPA 4011 > V3 Digital + SBD > R44 (24/48)
Source: BSC1 (hypers) > Silver Cables > FR-2LE [BA TMod] (24/48)
Otis Grove
86
0
0
Source: BSC1 (hypers) > Silver Cables > FR-2LE [BA TMod] (24/48)